Skip to main content

Max Creek Live at The Met on 2016-03-18

Audio Preview

etree
Max Creek Live at The Met on 2016-03-18


Publication date 2016-03-18 (check for other copies)
Collection MaxCreek
Band/Artist Max Creek
Set I

01. Big Boat
02. Orange Sunshine >
03. Rainbow
04. Tonight I'll Be Staying Here With You ^
05. Boogie On Reggae Woman $ >
06. Big River %
07. Just a Rose

Set II

01. Intro >
02. Baby Don't You Do It &
03. Angel of My Mind
04. Emerald Eyes >
05. After Midnight #>
06. Windows
07. Encore
08. Cities %

Notes

Max Creek
2016-03-18
The Met
Pawtucket, RI

mics were NOS just left of center by the soundboard

Schoeps mk4v>nbob actives>Naiant PFAs>Sonosax SX-R4 (24bit/96khz)

WAV>USB>Macbook Pro>Wave Editor(tracking,fades,resample(izotope)/dither(mbit+)to 16 bit/44.1k)>XAct(FLAC 8,ffp,fix sbe)

Recorded and transferred by Andy Murray

^ Bob Dylan
$ Stevie Wonder
% Johnny Cash
& Marvin Gaye
# J.J. Cale
% Talking Heads

length expanded size cdr WAVE problems fmt ratio filename
14:15.31 150894956 B --- -- ----- wav 1.0000 mc2016-03-18.mk4v.sxr4.1644.s1t01.wav
11:00.58 116560460 B --- -- ----- wav 1.0000 mc2016-03-18.mk4v.sxr4.1644.s1t02.wav
8:17.07 87687308 B --- -- ----- wav 1.0000 mc2016-03-18.mk4v.sxr4.1644.s1t03.wav
4:30.62 47773868 B --- -- ----- wav 1.0000 mc2016-03-18.mk4v.sxr4.1644.s1t04.wav
12:15.71 129821036 B --- -- ----- wav 1.0000 mc2016-03-18.mk4v.sxr4.1644.s1t05.wav
12:42.48 134529740 B --- -- ----- wav 1.0000 mc2016-03-18.mk4v.sxr4.1644.s1t06.wav
19:36.47 207556988 B --- -- ----- wav 1.0000 mc2016-03-18.mk4v.sxr4.1644.s1t07.wav
2:04.19 21918332 B --- -- ----- wav 1.0000 mc2016-03-18.mk4v.sxr4.1644.s2t01.wav
11:10.10 118211564 B --- -- ----- wav 1.0000 mc2016-03-18.mk4v.sxr4.1644.s2t02.wav
9:02.38 95698220 B --- -- ----- wav 1.0000 mc2016-03-18.mk4v.sxr4.1644.s2t03.wav
21:02.45 222722684 B --- -- ----- wav 1.0000 mc2016-03-18.mk4v.sxr4.1644.s2t04.wav
9:43.29 102909452 B --- -- ----- wav 1.0000 mc2016-03-18.mk4v.sxr4.1644.s2t05.wav
13:37.67 144276428 B --- -- ----- wav 1.0000 mc2016-03-18.mk4v.sxr4.1644.s2t06.wav
4:57.05 52402604 B --- -- ----- wav 1.0000 mc2016-03-18.mk4v.sxr4.1644.s2t07.wav
6:34.13 69532220 B --- -- ----- wav 1.0000 mc2016-03-18.mk4v.sxr4.1644.s2t08.wav
160:51.25 1702495860 B 1.0000 (15 files)

comment
Reviews

There are no reviews yet. Be the first one to write a review.
DOWNLOAD OPTIONS
In Collection
Max Creek
In Collection
Live Music Archive
Uploaded by
andyjah
on 3/22/2016
Views
122
SIMILAR ITEMS (based on metadata)
Max Creek
by Max Creek
etree
eye 338
favorite 0
comment 0
Source: AK40>LC3>KM100>M148>PMD660 (Oade)
Max Creek
by Max Creek
etree
eye 679
favorite 0
comment 0
Source: Samson CO2 > Tascam DR-680 MKI (16/44.1) >
Max Creek
by Max Creek
etree
eye 183
favorite 0
comment 0
Source: Schoeps mk41v>kc5>cmc6>Sonosax SX-R4
Max Creek
by Max Creek
etree
eye 97
favorite 0
comment 0
Source: Schoeps mk41v>kc5>cmc6>Sonosax SX-R4
Max Creek
by Max Creek
etree
eye 189
favorite 0
comment 0
Source: Schoeps mk4v>nbob actives>Naiant PFA>Sonosax SX-R4
Max Creek
by Max Creek
etree
eye 710
favorite 0
comment 1
favoritefavoritefavoritefavoritefavorite ( 1 reviews )
Source: FOB Oktava MK012s > Warm Mod Edirol UA5 > S/PDIF > Edirol R-44 (WAV 24bit/96k)
Max Creek
by Max Creek
etree
eye 909
favorite 0
comment 0
Source: Samson CO2 (FOH) + SBD > Tascam DR-680 MKI (16/44.1) >
Max Creek
by Max Creek
etree
eye 351
favorite 0
comment 0
Source: AK40>LC3>KM100>PMD660 (Oade)
Max Creek
by Max Creek
etree
eye 575
favorite 0
comment 0
Source: AK40>LC3>KM100>PMD660 (Oade)
Max Creek
by Max Creek
etree
eye 633
favorite 0
comment 1
favoritefavoritefavoritefavorite ( 1 reviews )
Source: Busman BSC1 (Hyp) > PMD660 (Oade Songcatcher)